Skip to main content

Dopapod Live at The Palladium on 2013-12-31

by Dopapod



Dopapod
2013-12-31
The Palladium
Worcester, MA

DPA 4011 > V3 Digital + SBD > R44 (24/96)
SDHC Card > Sound Forge Pro 10.0 (Mix, Normalize, fades, resample iZotope 64-Bit SRC, dither iZotope MBIT+ Dither) > CD Wav (tracking) > TLH > Flac (level 8)
DIN/ROC (right of FOH)/approx. 7' high
Tags added in Foobar2000

Taped and Transferred by Brian V.

01. Intro
02. Freight Train Filled With Dynamite >
03. Give It A Name
04. Bubblebrain ->
05. Auld Lang Syne* ->
06. Bubblebrain
07. Indian Grits^ ->
08. Vol. 3 #86 >
09. Present Ghosts%
10. Bahbi#
11. banter
12. Upside of Down >
13. Roid Rage
14. encore break
15. We Are Not Alone ->
16. Eight Years Ended
17. outro


Collection Dopapod
Band/Artist Dopapod
Venue The Palladium
Location Worcester, MA

Source DPA 4011 > V3 Digital + SBD > R44 (24/96)
Lineage SDHC Card > Sound Forge Pro 10.0 (Mix, Normalize, fades, resample iZotope 64-Bit SRC, dither iZotope MBIT+ Dither) > CD Wav (tracking) > TLH > Flac (level 8)
Taped by Brian V.
Transferred by Brian V.

Notes

*The party band and hoop dancers joined the band onstage for the Countdown
^contained Auld Lang Syne tease
%Rob's solo contained a Sexy Sax Man tease
#w/ Gabriel Marin from Consider The Source

thanks to Luke for the SBD feed and Disc Jam Music Festival for a great night of music
***Support Bands That Allow Taping/Trading***

flac fingerprints
dopapod2013-12-31s1t01.flac:e22df2b6c6e2c65d60a34dbe302ed50c
dopapod2013-12-31s1t02.flac:ec2d393529cca8bf3d1e5caed8ce4990
dopapod2013-12-31s1t03.flac:e8811b10d69a7e1c8ad7238c55c52bd3
dopapod2013-12-31s1t04.flac:76cc1bf67398a0baee8ae9b4892b9c59
dopapod2013-12-31s1t05.flac:594d6f52b6c16992add203ba3c6d378f
dopapod2013-12-31s1t06.flac:45a7af6bd1513c4e2729a8d18a726a69
dopapod2013-12-31s1t07.flac:02b2a8f18eb3d0fe26492fc6d71b0d73
dopapod2013-12-31s1t08.flac:4488b20f7a553d48480dfe3312e05518
dopapod2013-12-31s1t09.flac:4b47c7e794ffe267e591868811757606
dopapod2013-12-31s1t10.flac:b073d4984d6969ac00480ee433c6eef3
dopapod2013-12-31s1t11.flac:f957e0e921d8c36de8109daa18bf6825
dopapod2013-12-31s1t12.flac:666037ba608800482cf2d482de9fee39
dopapod2013-12-31s1t13.flac:e8081a2d14315b1e81fd515f0d9e2a67
dopapod2013-12-31s1t14.flac:c157130981c375f0797c61ab4f891e64
dopapod2013-12-31s1t15.flac:06c3e28ac2045525bd773d2073039f44
dopapod2013-12-31s1t16.flac:aeefdd46f030e336087c408d16f92ae8
dopapod2013-12-31s1t17.flac:962b36d13ccdb2e0d19c71f6d6062984


shntool output
length expanded size cdr WAVE problems fmt ratio filename
3:43.09 39358412 B --- -- ---xx flac 0.4083 dopapod2013-12-31s1t01.flac
10:02.23 106246940 B --- -- ---xx flac 0.5433 dopapod2013-12-31s1t02.flac
9:23.01 99315596 B --- -- ---xx flac 0.5409 dopapod2013-12-31s1t03.flac
10:34.68 111997580 B --- -- ---xx flac 0.5319 dopapod2013-12-31s1t04.flac
0:53.63 9497420 B --- -- ---xx flac 0.6066 dopapod2013-12-31s1t05.flac
2:29.44 26387132 B --- -- ---xx flac 0.5495 dopapod2013-12-31s1t06.flac
11:43.49 124124492 B --- -- ---xx flac 0.5372 dopapod2013-12-31s1t07.flac
12:35.60 133323164 B --- -- ---xx flac 0.5546 dopapod2013-12-31s1t08.flac
8:22.16 88590476 B --- -- ---xx flac 0.5536 dopapod2013-12-31s1t09.flac
11:07.64 117809372 B --- -- ---xx flac 0.5324 dopapod2013-12-31s1t10.flac
1:09.49 12286892 B --- -- ---xx flac 0.4770 dopapod2013-12-31s1t11.flac
9:22.12 99165068 B --- -- ---xx flac 0.5435 dopapod2013-12-31s1t12.flac
6:51.68 72660380 B --- -- ---xx flac 0.5671 dopapod2013-12-31s1t13.flac
2:02.26 21581996 B --- -- ---xx flac 0.4335 dopapod2013-12-31s1t14.flac
8:27.16 89472476 B --- -- ---xx flac 0.5396 dopapod2013-12-31s1t15.flac
16:31.54 174939452 B --- -- ---xx flac 0.5326 dopapod2013-12-31s1t16.flac
1:23.20 14688284 B --- -- ---xx flac 0.4409 dopapod2013-12-31s1t17.flac
126:44.42 1341445132 B 0.5352 (17 files)

Reviews

There are no reviews yet. Be the first one to write a review.
In Collection
Dopapod
In Collection
Live Music Archive
Uploaded by
Brian V.
on 1/3/2014
Views
293
Favorites
1
PEOPLE ALSO FOUND
Dopapod
by Dopapod
53
0
0
Source: DPA 4011 > V3 Digital > R44 (24/48)
Dopapod
by Dopapod
32
0
0
Source: DPA 4011 > V3 Digital > R44 (24/96)
Dopapod
by Dopapod
96
0
0
Source: DPA 4011 > V3 Digital > R44 (24/96)
Dopapod
98
0
0
Source: Oktava mk 012 + SBD > R4 (24/48)
Dopapod
by Dopapod
37
0
0
Source: DPA 4011 > V3 Digital + SBD > R44 (24/96)
Dopapod
by Dopapod
38
0
0
Source: DPA 4011 > V3 Digital + SBD > R44 (24/96)
Dopapod
by Dopapod
51
0
0
Source: DPA 4011 > V3 Digital + SBD > R44 (24/96)
Dopapod
by Dopapod
47
0
0
Source: DPA 4011 > V3 Digital > R44 (24/96)
Dopapod
by Dopapod
44
0
0
Source: DPA 4011 > V3 Digital + SBD > R44 (24/96)
Dopapod
by Dopapod
246
0
2
( 2 reviews )
Source: DPA 4011 > V3 Digital + SBD > R44 (24/96)